Sa.Hi.Pra.Shaale, Kasaragodu (2018) Kannada - 1080p - WEB-DL - AVC - AAC-TMV

Sa.Hi.Pra.Shaale, Kasaragodu (2018) Kannada - 1080p - WEB-DL - AVC - AAC-TMV





Format                                   : MPEG-4
Format profile                           : Base Media
Codec ID                                 : isom (isom/iso2/avc1/mp41)
File size                                : 5.18 GiB
Duration                                 : 2 h 21 min
Overall bit rate mode                    : Constant
Overall bit rate                         : 5 252 kb/s
Writing application                      : Lavf57.56.100

Video
ID                                       : 1
Format                                   : AVC
Format/Info                              : Advanced Video Codec
Format profile                           : Baseline@L4
Format settings                          : 1 Ref Frames
Format settings, CABAC                   : No
Format settings, RefFrames               : 1 frame
Codec ID                                 : avc1
Codec ID/Info                            : Advanced Video Coding
Duration                                 : 2 h 21 min
Bit rate mode                            : Constant
Bit rate                                 : 5 120 kb/s
Width                                    : 1 920 pixels
Height                                   : 1 080 pixels
Display aspect ratio                     : 16:9
Frame rate mode                          : Constant
Frame rate                               : 25.000 FPS
Color space                              : YUV
Chroma subsampling                       : 4:2:0
Bit depth                                : 8 bits
Scan type                                : Progressive
Bits/(Pixel*Frame)                       : 0.099
Stream size                              : 5.05 GiB (97%)
Codec configuration box                  : avcC

Audio
ID                                       : 2
Format                                   : AAC LC
Format/Info                              : Advanced Audio Codec Low Complexity
Codec ID                                 : mp4a-40-2
Duration                                 : 2 h 21 min
Bit rate mode                            : Constant
Bit rate                                 : 126 kb/s
Channel(s)                               : 2 channels
Channel layout                           : L R
Sampling rate                            : 44.1 kHz
Frame rate                               : 43.066 FPS (1024 SPF)
Compression mode                         : Lossy
Stream size                              : 127 MiB (2%)
Language                                 : English
Default                                  : Yes
Alternate group                          : 1






SINGLE DIRECT FAST LINKS

http://www.heroupload.com/278d206b585e5c40/Sa.Hi.Pra.Shaale.Kasaragodu.2018.Kannada.WEB-DL.1080p.UNTOUCHED-TMV.mp4


1GB LINKS


http://www.heroupload.com/919a1698ae913852/Sa.Hi.Pra.Shaale.Kasaragodu.2018.Kannada.WEB-DL.1080p.UNTOUCHED-TMV.part1.rar
http://www.heroupload.com/bedeecf13a9a719a/Sa.Hi.Pra.Shaale.Kasaragodu.2018.Kannada.WEB-DL.1080p.UNTOUCHED-TMV.part2.rar
http://www.heroupload.com/2089d9e4263f661e/Sa.Hi.Pra.Shaale.Kasaragodu.2018.Kannada.WEB-DL.1080p.UNTOUCHED-TMV.part3.rar
http://www.heroupload.com/96fd447387c6569d/Sa.Hi.Pra.Shaale.Kasaragodu.2018.Kannada.WEB-DL.1080p.UNTOUCHED-TMV.part4.rar
http://www.heroupload.com/87e5bacc20f83a11/Sa.Hi.Pra.Shaale.Kasaragodu.2018.Kannada.WEB-DL.1080p.UNTOUCHED-TMV.part5.rar
http://www.heroupload.com/358055556dda7d48/Sa.Hi.Pra.Shaale.Kasaragodu.2018.Kannada.WEB-DL.1080p.UNTOUCHED-TMV.part6.rar


Buy Premium From My Links & Support Me
шаблоны для dle 11.2

Blade Accs, Armours & Shields | Edwardian Mirror - Valentine's Day Heart - English Sterling 1907 | The Lizzie Borden Chronicles