Thugs of Hindostan (2018) Telugu - WEB-DL - 720p - AVC - DDP5.1- Msub [DDR-Exclusive]

Thugs of Hindostan (2018) Telugu - WEB-DL - 720p - AVC - DDP5.1- Msub [DDR-Exclusive]





Format                                   : Matroska
Format version                           : Version 4
File size                                : 3.65 GiB
Duration                                 : 2 h 44 min
Overall bit rate                         : 3 182 kb/s
Encoded date                             : UTC 2019-01-03 20:33:39
Writing application                      : mkvmerge v29.0.0 ('Like It Or Not') 32-bit
Writing library                          : libebml v1.3.6 + libmatroska v1.4.9

Video
ID                                       : 1
Format                                   : AVC
Format/Info                              : Advanced Video Codec
Format profile                           : High@L3.1
Format settings                          : CABAC / 5 Ref Frames
Format settings, CABAC                   : Yes
Format settings, RefFrames               : 5 frames
Codec ID                                 : V_MPEG4/ISO/AVC
Duration                                 : 2 h 44 min
Bit rate                                 : 2 540 kb/s
Width                                    : 1 280 pixels
Height                                   : 720 pixels
Display aspect ratio                     : 16:9
Frame rate mode                          : Constant
Frame rate                               : 24.000 FPS
Color space                              : YUV
Chroma subsampling                       : 4:2:0
Bit depth                                : 8 bits
Scan type                                : Progressive
Bits/(Pixel*Frame)                       : 0.115
Stream size                              : 2.91 GiB (80%)
Language                                 : Telugu
Default                                  : Yes
Forced                                   : No
Color range                              : Limited
Color primaries                          : BT.709
Transfer characteristics                 : BT.709
Matrix coefficients                      : BT.709

Audio
ID                                       : 2
Format                                   : E-AC-3
Format/Info                              : Enhanced AC-3
Commercial name                          : Dolby Digital Plus
Codec ID                                 : A_EAC3
Duration                                 : 2 h 44 min
Bit rate mode                            : Constant
Bit rate                                 : 640 kb/s
Channel(s)                               : 6 channels
Channel layout                           : L R C LFE Ls Rs
Sampling rate                            : 48.0 kHz
Frame rate                               : 31.250 FPS (1536 SPF)
Compression mode                         : Lossy
Stream size                              : 751 MiB (20%)
Language                                 : Telugu
Service kind                             : Complete Main
Default                                  : No
Forced                                   : No

Text #1
ID                                       : 3
Format                                   : UTF-8
Codec ID                                 : S_TEXT/UTF8
Codec ID/Info                            : UTF-8 Plain Text
Duration                                 : 2 h 36 min
Bit rate                                 : 34 b/s
Count of elements                        : 1277
Stream size                              : 39.1 KiB (0%)
Language                                 : English
Default                                  : No
Forced                                   : No

Text #2
ID                                       : 4
Format                                   : UTF-8
Codec ID                                 : S_TEXT/UTF8
Codec ID/Info                            : UTF-8 Plain Text
Duration                                 : 2 h 36 min
Bit rate                                 : 38 b/s
Count of elements                        : 1285
Stream size                              : 44.2 KiB (0%)
Language                                 : Spanish
Default                                  : No
Forced                                   : No

Text #3
ID                                       : 5
Format                                   : UTF-8
Codec ID                                 : S_TEXT/UTF8
Codec ID/Info                            : UTF-8 Plain Text
Duration                                 : 2 h 36 min
Bit rate                                 : 37 b/s
Count of elements                        : 1285
Stream size                              : 43.7 KiB (0%)
Language                                 : French
Default                                  : No
Forced                                   : No

Text #4
ID                                       : 6
Format                                   : UTF-8
Codec ID                                 : S_TEXT/UTF8
Codec ID/Info                            : UTF-8 Plain Text
Duration                                 : 2 h 36 min
Bit rate                                 : 52 b/s
Count of elements                        : 1285
Stream size                              : 60.1 KiB (0%)
Language                                 : Arabic
Default                                  : No
Forced                                   : No




SINGLE DIRECT FAST LINKS

http://www.heroupload.com/24ef1e1d7803b5de/Thugs.of.Hindostan.2018.Telugu.WEB-DL.720p.UNTOUCHED.AVC.DD5.1.MSub-DDR.mkv


1GB LINKS



http://www.heroupload.com/c977613e2d7e48bb/Thugs.of.Hindostan.2018.Telugu.WEB-DL.720p.UNTOUCHED.AVC.DD5.1.MSub-DDR.part1.rar
http://www.heroupload.com/704d902f73e34d40/Thugs.of.Hindostan.2018.Telugu.WEB-DL.720p.UNTOUCHED.AVC.DD5.1.MSub-DDR.part2.rar
http://www.heroupload.com/c1b1c4616b9c3fe0/Thugs.of.Hindostan.2018.Telugu.WEB-DL.720p.UNTOUCHED.AVC.DD5.1.MSub-DDR.part3.rar
http://www.heroupload.com/250ebb288b4a38b5/Thugs.of.Hindostan.2018.Telugu.WEB-DL.720p.UNTOUCHED.AVC.DD5.1.MSub-DDR.part4.rar


Buy Premium From My Links & Support Me
шаблоны для dle 11.2

Die Erdnuss-Reaktion - The Peanut Reaction | Unforgettable | New Multiple Universal Laptop Wall Adapter/Charger/Power Supply 96W 12V-24V