Thugs of Hindostan (2018) Telugu - WEB-DL - 1080p - AVC - DDP5.1- Msub-DDR-Exclusive

Thugs of Hindostan (2018) Telugu - WEB-DL - 1080p - AVC - DDP5.1- Msub-DDR-Exclusive





Format                                   : Matroska
Format version                           : Version 4
File size                                : 7.36 GiB
Duration                                 : 2 h 44 min
Overall bit rate                         : 6 421 kb/s
Encoded date                             : UTC 2019-01-03 20:37:31
Writing application                      : mkvmerge v29.0.0 ('Like It Or Not') 32-bit
Writing library                          : libebml v1.3.6 + libmatroska v1.4.9

Video
ID                                       : 1
Format                                   : AVC
Format/Info                              : Advanced Video Codec
Format profile                           : High@L4
Format settings                          : CABAC / 4 Ref Frames
Format settings, CABAC                   : Yes
Format settings, RefFrames               : 4 frames
Codec ID                                 : V_MPEG4/ISO/AVC
Duration                                 : 2 h 44 min
Bit rate                                 : 5 779 kb/s
Width                                    : 1 920 pixels
Height                                   : 1 080 pixels
Display aspect ratio                     : 16:9
Frame rate mode                          : Constant
Frame rate                               : 24.000 FPS
Color space                              : YUV
Chroma subsampling                       : 4:2:0
Bit depth                                : 8 bits
Scan type                                : Progressive
Bits/(Pixel*Frame)                       : 0.116
Stream size                              : 6.62 GiB (90%)
Language                                 : Telugu
Default                                  : Yes
Forced                                   : No
Color range                              : Limited
Color primaries                          : BT.709
Transfer characteristics                 : BT.709
Matrix coefficients                      : BT.709

Audio
ID                                       : 2
Format                                   : E-AC-3
Format/Info                              : Enhanced AC-3
Commercial name                          : Dolby Digital Plus
Codec ID                                 : A_EAC3
Duration                                 : 2 h 44 min
Bit rate mode                            : Constant
Bit rate                                 : 640 kb/s
Channel(s)                               : 6 channels
Channel layout                           : L R C LFE Ls Rs
Sampling rate                            : 48.0 kHz
Frame rate                               : 31.250 FPS (1536 SPF)
Compression mode                         : Lossy
Stream size                              : 751 MiB (10%)
Language                                 : Telugu
Service kind                             : Complete Main
Default                                  : No
Forced                                   : No

Text #1
ID                                       : 3
Format                                   : UTF-8
Codec ID                                 : S_TEXT/UTF8
Codec ID/Info                            : UTF-8 Plain Text
Duration                                 : 2 h 36 min
Bit rate                                 : 34 b/s
Count of elements                        : 1277
Stream size                              : 39.1 KiB (0%)
Language                                 : English
Default                                  : No
Forced                                   : No

Text #2
ID                                       : 4
Format                                   : UTF-8
Codec ID                                 : S_TEXT/UTF8
Codec ID/Info                            : UTF-8 Plain Text
Duration                                 : 2 h 36 min
Bit rate                                 : 38 b/s
Count of elements                        : 1285
Stream size                              : 44.2 KiB (0%)
Language                                 : Spanish
Default                                  : No
Forced                                   : No

Text #3
ID                                       : 5
Format                                   : UTF-8
Codec ID                                 : S_TEXT/UTF8
Codec ID/Info                            : UTF-8 Plain Text
Duration                                 : 2 h 36 min
Bit rate                                 : 37 b/s
Count of elements                        : 1285
Stream size                              : 43.7 KiB (0%)
Language                                 : French
Default                                  : No
Forced                                   : No

Text #4
ID                                       : 6
Format                                   : UTF-8
Codec ID                                 : S_TEXT/UTF8
Codec ID/Info                            : UTF-8 Plain Text
Duration                                 : 2 h 36 min
Bit rate                                 : 52 b/s
Count of elements                        : 1285
Stream size                              : 60.1 KiB (0%)
Language                                 : Arabic
Default                                  : No
Forced                                   : No






SINGLE DIRECT FAST LINKS

http://www.heroupload.com/b03ad430de4f31fb/Thugs.of.Hindostan.2018.Telugu.WEB-DL.1080p.UNTOUCHED.AVC.DD5.1.MSub-DDR.mkv


1GB LINKS



http://www.heroupload.com/dfbafa6818db4848/Thugs.of.Hindostan.2018.Telugu.WEB-DL.1080p.UNTOUCHED.AVC.DD5.1.MSub-DDR.part1.rar
http://www.heroupload.com/0336ca3a6891f8eb/Thugs.of.Hindostan.2018.Telugu.WEB-DL.1080p.UNTOUCHED.AVC.DD5.1.MSub-DDR.part2.rar
http://www.heroupload.com/eccb3b41fe332d6e/Thugs.of.Hindostan.2018.Telugu.WEB-DL.1080p.UNTOUCHED.AVC.DD5.1.MSub-DDR.part3.rar
http://www.heroupload.com/64e0fe8b6324ae16/Thugs.of.Hindostan.2018.Telugu.WEB-DL.1080p.UNTOUCHED.AVC.DD5.1.MSub-DDR.part4.rar
http://www.heroupload.com/0afae9772239e283/Thugs.of.Hindostan.2018.Telugu.WEB-DL.1080p.UNTOUCHED.AVC.DD5.1.MSub-DDR.part5.rar
http://www.heroupload.com/ec97530eaa963535/Thugs.of.Hindostan.2018.Telugu.WEB-DL.1080p.UNTOUCHED.AVC.DD5.1.MSub-DDR.part6.rar
http://www.heroupload.com/ae16eb0a79d8833c/Thugs.of.Hindostan.2018.Telugu.WEB-DL.1080p.UNTOUCHED.AVC.DD5.1.MSub-DDR.part7.rar
http://www.heroupload.com/4836861588a66349/Thugs.of.Hindostan.2018.Telugu.WEB-DL.1080p.UNTOUCHED.AVC.DD5.1.MSub-DDR.part8.rar


Buy Premium From My Links & Support Me
шаблоны для dle 11.2

Studio One 3 Professional v3.5.4 Include 16 Packs WiN MAC-R2R | The Thread | Read More